conanlcg
超級版主

[2015] [其他] [恐怖] [BD-1080P] 死亡性服務 Death.Scort.Service.2015.1080p.BluRay.x264-HANDJOB 6.51GB

-->

帖子完整標題:死亡性服務 Death.Scort.Service.2015.1080p.BluRay.x264-HANDJOB 6.51GB




◎譯  名 死亡性服務 / DEATH-SCORT SERVICE
◎片  名 Death-Scort Service
◎年  代 2015
◎產  地 德國
◎類  別 恐怖
◎語  言 英語
◎上映日期 2015
◎IMDb評分 5.0/10 from 100 users
◎IMDb鏈接 https://www.imdb.com/title/tt4504188
◎豆瓣評分 0/10 from 0 users
◎豆瓣鏈接 https://movie.douban.com/subject/26617416/
◎導  演 Sean Donohue
◎編  劇 Chris Woods
◎主  演 Krystal Pixie Adams
      Ashley Lynn Caputo
      Sean Donohue


◎標  簽 情色 | 血腥 | 恐怖 | 既黃又暴力 | 惡心 | 國外電影 | 4.德國重口味 | 04.德國重口味

◎簡  介

  暫無相關劇情介紹
Video
ID : 1
Format : AVC
Format/Info : Advanced Video Codec
Format profile : [email protected]
Format settings : CABAC / 4 Ref Frames
Format settings, CABAC : Yes
Format settings, Reference frames : 4 frames
Codec ID : V_MPEG4/ISO/AVC
Duration : 1 h 19 min
Bit rate : 11.6 Mb/s
Width : 1 920 pixels
Height : 1 080 pixels
Display aspect ratio : 16:9
Frame rate mode : Constant
Frame rate : 23.976 (24000/1001) FPS
Color space : YUV
Chroma subsampling : 4:2:0
Bit depth : 8 bits
Scan type : Progressive
Bits/(Pixel*Frame) : 0.233
Stream size : 6.42 GiB (99%)
Writing library : x264 core 157 r2935 545de2f
Encoding settings : cabac=1 / ref=4 / deblock=1:-3:-3 / analyse=0x3:0x133 / me=umh / subme=10 / psy=1 / psy_rd=1.00:0.00 / mixed_ref=1 / me_range=32 / chroma_me=1 / trellis=2 / 8x8dct=1 / cqm=0 / deadzone=21,11 / fast_pskip=0 / chroma_qp_offset=-2 / threads=16 / lookahead_threads=4 / sliced_threads=0 / nr=0 / decimate=0 / interlaced=0 / bluray_compat=0 / constrained_intra=0 / bframes=16 / b_pyramid=2 / b_adapt=2 / b_bias=0 / direct=3 / weightb=1 / open_gop=0 / weightp=2 / keyint=240 / keyint_min=24 / scenecut=40 / intra_refresh=0 / rc_lookahead=60 / rc=crf / mbtree=0 / crf=19.8 / qcomp=0.60 / qpmin=0 / qpmax=69 / qpstep=4 / vbv_maxrate=62500 / vbv_bufsize=78125 / crf_max=0.0 / nal_hrd=none / filler=0 / ip_ratio=1.40 / pb_ratio=1.30 / aq=2:1.00
Default : Yes
Forced : No
Color range : Limited
Color primaries : BT.709
Transfer characteristics : BT.709
Matrix coefficients : BT.709

Audio
ID : 2
Format : AAC LC
Format/Info : Advanced Audio Codec Low Complexity
Codec ID : A_AAC-2
Duration : 1 h 19 min
Bit rate : 160 kb/s
Channel(s) : 2 channels
Channel layout : L R
Sampling rate : 48.0 kHz
Frame rate : 46.875 FPS (1024 SPF)
Compression mode : Lossy
Stream size : 90.6 MiB (1%)
Language : English
Default : Yes
Forced : No





1 個附件 售價 大小 下載 時間

Death.Scort.Service.2015.1080p.BluRay.x264-HANDJOB.torrent 0 金幣 33.08K 6790 次 5月前

#1樓
發帖時間:2019-10-28 20:11:02   |   回復數:3
木星
一派掌門
謝謝樓主分享
5月前 #2樓
911degrees
隱世仙人♂
非常感謝,謝謝分享
5月前 #3樓
xiaoyonglian
武林盟主
謝謝樓主分享
5月前 #4樓
游客組