conanlcg
超級版主

[2016] [歐美] [其他] [BD-1080P] 電影配樂傳奇 Score.A.Film.Music.Documentary.2016.1080p.BluRay.x264-TREBLE 5.46GB

-->

帖子完整標題:電影配樂傳奇 Score.A.Film.Music.Documentary.2016.1080p.BluRay.x264-TREBLE 5.46GB




◎譯  名 電影配樂傳奇 / The Score: A Film Music Documentary
◎片  名 Score: A Film Music Documentary
◎年  代 2016
◎產  地 美國
◎類  別 紀錄片 / 音樂
◎語  言 英語
◎上映日期 2016-10-08(漢普頓國際電影節) / 2017-09-05(美國)
◎IMDb評分 7.5/10 from 3396 users
◎IMDb鏈接 https://www.imdb.com/title/tt4207112
◎豆瓣評分 8.0/10 from 938 users
◎豆瓣鏈接 https://movie.douban.com/subject/26612648/
◎片  長 93分鐘
◎導  演 馬特·施拉德 Matt Schrader
◎編  劇 馬特·施拉德 Matt Schrader
◎主  演 漢斯·季默 Hans Zimmer
      丹尼·艾夫曼 Danny Elfman
      達里奧·馬里安奈利 Dario Marianelli
      特倫特·雷諾 Trent Reznor
      阿提喀斯·羅斯 Atticus Ross
      帕特里克·杜爾 Patrick Doyle
      詹姆斯·霍納 James Horner
      布萊恩·泰勒 Brian Tyler
      約翰·鮑威爾 John Powell
      馬克·馬瑟斯鮑夫 Mark Mothersbaugh
      亨利·杰克曼 Henry Jackman
      約翰·戴布尼 John Debney
      馬可·貝爾崔米 Marco Beltrami
      克里斯托弗·貝克 Christophe Beck
      泰勒·貝茨 Tyler Bates
      大衛·阿諾德 David Arnold
      克里斯托弗·楊 Christopher Young
      西托·佩雷拉 Heitor Pereira
      麥切爾·丹納 Mychael Danna
      洛內·巴爾菲 Lorne Balfe
      蕾切爾·波特曼 Rachel Portman
      埃爾默·伯恩斯坦 Elmer Bernstein
      安東尼奧·桑切斯 Antonio Sanchez
      杰瑞·高史密斯 Jerry Goldsmith
      喬·克雷默 Joe Kraemer


◎標  簽 紀錄片 | 音樂 | 美國 | 配樂 | 關于電影 | 漢斯·季默 | 藝術 | 2016

◎簡  介

  囊括50年內好萊塢所有經典電影配樂故事的紀錄片,收錄了包括《007》、《星球大戰》、《奪寶奇兵》、《加勒比海盜》、《泰坦尼克號》、《社交網絡》、《瘋狂的麥克斯》、《驚魂記》在內的多部影片的配樂師的采訪,漢斯·季默、詹姆斯·卡梅隆、約翰·威廉姆斯、托馬斯·紐曼、詹姆斯·霍納等人出鏡口述一部影片配樂的誕生,如何讓一部片子的配樂深入人心?配樂創作過程中又有什么樣的挑戰?此紀錄片將悉數解答
Video
ID : 2
Format : AVC
Format/Info : Advanced Video Codec
Format profile : [email protected]
Format settings : CABAC / 4 Ref Frames
Format settings, CABAC : Yes
Format settings, Reference frames : 4 frames
Codec ID : V_MPEG4/ISO/AVC
Duration : 1 h 32 min
Bit rate : 8 040 kb/s
Width : 1 920 pixels
Height : 1 080 pixels
Display aspect ratio : 16:9
Frame rate mode : Constant
Frame rate : 23.976 (24000/1001) FPS
Color space : YUV
Chroma subsampling : 4:2:0
Bit depth : 8 bits
Scan type : Progressive
Bits/(Pixel*Frame) : 0.162
Stream size : 5.21 GiB (95%)
Title : English
Writing library : x264 core 152 r2851 ba24899
Encoding settings : cabac=1 / ref=4 / deblock=1:0:0 / analyse=0x3:0x113 / me=umh / subme=8 / psy=1 / psy_rd=1.00:0.00 / mixed_ref=1 / me_range=16 / chroma_me=1 / trellis=1 / 8x8dct=1 / cqm=0 / deadzone=21,11 / fast_pskip=1 / chroma_qp_offset=-2 / threads=12 / lookahead_threads=2 / sliced_threads=0 / nr=0 / decimate=1 / interlaced=0 / bluray_compat=0 / constrained_intra=0 / bframes=3 / b_pyramid=2 / b_adapt=1 / b_bias=0 / direct=3 / weightb=1 / open_gop=0 / weightp=2 / keyint=240 / keyint_min=24 / scenecut=40 / intra_refresh=0 / rc_lookahead=50 / rc=2pass / mbtree=1 / bitrate=8040 / ratetol=1.0 / qcomp=0.60 / qpmin=0 / qpmax=69 / qpstep=4 / cplxblur=20.0 / qblur=0.5 / ip_ratio=1.40 / aq=1:1.00
Language : English
Default : Yes
Forced : No

Audio
ID : 1
Format : AC-3
Format/Info : Audio Coding 3
Commercial name : Dolby Digital
Codec ID : A_AC3
Duration : 1 h 32 min
Bit rate mode : Constant
Bit rate : 384 kb/s
Channel(s) : 6 channels
Channel layout : L R C LFE Ls Rs
Sampling rate : 48.0 kHz
Frame rate : 31.250 FPS (1536 SPF)
Bit depth : 16 bits
Compression mode : Lossy
Stream size : 255 MiB (5%)
Title : English
Language : English
Service kind : Complete Main
Default : Yes
Forced : No

Menu
00:00:00.000 : en:00:00:00.000
00:03:12.734 : en:00:03:12.734
00:06:47.991 : en:00:06:47.991
00:11:01.870 : en:00:11:01.870
00:14:29.869 : en:00:14:29.869
00:19:55.528 : en:00:19:55.528
00:26:20.162 : en:00:26:20.162
00:32:06.800 : en:00:32:06.800
00:47:04.196 : en:00:47:04.196
00:49:40.811 : en:00:49:40.811
00:56:08.073 : en:00:56:08.073
01:00:15.529 : en:01:00:15.529
01:02:38.338 : en:01:02:38.338
01:18:18.944 : en:01:18:18.944
01:20:53.599 : en:01:20:53.599
01:23:11.487 : en:01:23:11.487
01:26:29.935 : en:01:26:29.935
01:29:41.626 : en:01:29:41.626





1 個附件 售價 大小 下載 時間

Score.A.Film.Music.Documentary.2016.1080p.BluRay.x264-TREBLE.torrent 0 金幣 27.82K 784 次 5月前

#1樓
發帖時間:2019-10-28 20:14:00   |   回復數:3
jokingcheung
一代宗師
謝謝分享
5月前 #2樓
solodl
武林高手
很喜歡!
5月前 #3樓
911degrees
隱世仙人♂
非常感謝,謝謝分享
5月前 #4樓
游客組