conanlcg
超級版主

[2009] [其他] [動作] [4K-原盤] 終結者2018 Terminator.Salvation.2009.2160p.BluRay.REMUX.HEVC.DTS-HD.MA.5.1-FGT 49.4

-->

帖子完整標題:終結者2018 Terminator.Salvation.2009.2160p.BluRay.REMUX.HEVC.DTS-HD.MA.5.1-FGT 49.40GB




◎譯  名 終結者2018 / T4 / Terminator 4 / Terminator Salvation: The Future Begins / 未來戰士2018(港) / 未來戰士4 / 終結者4:救世主 / 終結者4:救世軍 / 魔鬼終結者:未來救贖(臺)
◎片  名 Terminator Salvation
◎年  代 2009
◎產  地 美國 / 德國 / 英國 / 意大利
◎類  別 動作 / 科幻 / 驚悚 / 冒險
◎語  言 英語 / 意大利語
◎上映日期 2009-05-21(美國) / 2009-06-09(中國大陸)
◎IMDb評分 6.5/10 from 325715 users
◎IMDb鏈接 https://www.imdb.com/title/tt0438488
◎豆瓣評分 6.7/10 from 75576 users
◎豆瓣鏈接 https://movie.douban.com/subject/1410556/
◎片  長 115分鐘
◎導  演 約瑟夫·麥克金提·尼徹 McG
◎編  劇 約翰·布蘭卡托 John Brancato / 邁克爾·費里斯 Michael Ferris
◎主  演 克里斯蒂安·貝爾 Christian Bale
      薩姆·沃辛頓 Sam Worthington
      穆恩·布拉得古德 Moon Bloodgood
      海倫娜·伯翰·卡特 Helena Bonham Carter
      安東·葉利欽 Anton Yelchin
      布萊絲·達拉斯·霍華德 Bryce Dallas Howard
      科曼 Common
      簡·亞歷山大 Jane Alexander
      邁克爾·艾恩塞德 Michael Ironside
      克里斯·勃朗寧 Chris Browning
      貝絲·貝利 Beth Bailey
      巴斯特·雷維斯 Buster Reeves
      格雷格·塞拉諾 Greg Serano
      布魯斯·麥金托什 Bruce McIntosh
      特雷瓦·埃迪內 Treva Etienne
      迪蘭·科寧 Dylan Kenin
      邁克爾·帕帕約翰 Michael Papajohn
      克里斯·阿斯沃思 Chris Ashworth
      格雷格·普利特 Greg Plitt
      泰瑞·克魯斯 Terry Crews
      扎克·麥克格溫 Zach McGowan
      艾薩克·卡皮 Isaac Kappy
      布茲·薩瑟蘭德 Boots Southerland
      大衛·米德桑德 David Midthunder
      安居爾·尼加姆 Anjul Nigam
      羅蘭佐·卡倫德 Lorenzo Callender
      喬·巴齊爾 Joe Basile
      羅蘭德·基金格 Roland Kickinger
      布萊恩·斯蒂爾 Brian Steele
      琳達·漢密爾頓 Linda Hamilton
      保羅·J·珀爾特 Paul J. Porter
      弗蘭克·鮑沃斯 Frank Powers
      Jadagrace
      Ivan G'Vera
      Dorian Nkono
      Victor J. Ho
      Neil Harbisson
      Luke Kearney
      Gregory Leiker
      Mark Rayner


◎標  簽 科幻 | 美國 | 動作 | 終結者2018 | 2009 | 戰爭 | Terminator | 暴力

◎簡  介

  2018年,天網系統與人類的戰爭使世界陷入了末世般的境況,反抗軍精神領袖約翰·康納(克里斯蒂安·貝爾 Christian Bale 飾)帶隊執行一次任務的過程中獲得了戰勝天網的新思路,而天網系統適時推出了新的目標排名,康納位居次席,榜首上康納此時尚年青的父親凱爾·瑞斯赫 然在列。與此同時,一名遺忘了自身過去經歷的強壯男子馬庫斯(薩姆·沃辛頓 Sam Worthington 飾)出現在洛杉磯的廢墟中,他與反抗軍戰士瑞斯偶然結識,并組隊前往反抗軍總部,不料途中遭機械人襲擊,瑞斯被俘。落單的馬庫斯經由反抗軍女戰士布萊爾引路,迎來了與康納命中注定的相遇,但人與機械的對立讓康納不得不視對方為敵人……
  瑞斯在天網中心生死未卜,同時反抗軍高層不肯推遲強行進攻計劃,留給康納的時間不再充裕,他只能選擇進行一場賭上性命與榮譽的潛入行動。

◎獲獎情況

  第11屆美國青少年選擇獎(2009)
  最佳動作冒險電影(提名)
  最佳動作冒險電影男演員(提名) 克里斯蒂安·貝爾
  最佳動作冒險電影女演員(提名) 布萊絲·達拉斯·霍華德
  Choice Movie Fresh Face Male(提名) 薩姆·沃辛頓
  最佳暑期動作冒險電影(提名)
Video
ID : 1
Format : HEVC
Format/Info : High Efficiency Video Coding
Format profile : Main [email protected]@High
HDR format : SMPTE ST 2086, HDR10 compatible
Codec ID : V_MPEGH/ISO/HEVC
Duration : 1 h 54 min
Bit rate : 48.2 Mb/s
Width : 3 840 pixels
Height : 2 160 pixels
Display aspect ratio : 16:9
Frame rate mode : Constant
Frame rate : 23.976 (24000/1001) FPS
Color space : YUV
Chroma subsampling : 4:2:0 (Type 2)
Bit depth : 10 bits
Bits/(Pixel*Frame) : 0.243
Stream size : 38.7 GiB (78%)
Title : Terminator.Salvation.2009.2160p.BluRay.REMUX.HEVC.DTS-HD.MA.5.1-FGT
Language : English
Default : No
Forced : No
Color range : Limited
Color primaries : BT.2020
Transfer characteristics : PQ
Matrix coefficients : BT.2020 non-constant
Mastering display color primaries : Display P3
Mastering display luminance : min: 0.0001 cd/m2, max: 1000 cd/m2
Maximum Content Light Level : 992 cd/m2
Maximum Frame-Average Light Level : 523 cd/m2

Audio #1
ID : 2
Format : DTS XLL
Format/Info : Digital Theater Systems
Commercial name : DTS-HD Master Audio
Codec ID : A_DTS
Duration : 1 h 54 min
Bit rate mode : Variable
Bit rate : 2 424 kb/s
Channel(s) : 6 channels
Channel layout : C L R Ls Rs LFE
Sampling rate : 48.0 kHz
Frame rate : 93.750 FPS (512 SPF)
Bit depth : 16 bits
Compression mode : Lossless
Stream size : 1.94 GiB (4%)
Title : Terminator.Salvation.2009.2160p.BluRay.REMUX.HEVC.DTS-HD.MA.5.1-FGT
Language : English
Default : Yes
Forced : No

Audio #2
ID : 3
Format : AC-3
Format/Info : Audio Coding 3
Commercial name : Dolby Digital
Codec ID : A_AC3
Duration : 1 h 54 min
Bit rate mode : Constant
Bit rate : 640 kb/s
Channel(s) : 6 channels
Channel layout : L R C LFE Ls Rs
Sampling rate : 48.0 kHz
Frame rate : 31.250 FPS (1536 SPF)
Bit depth : 16 bits
Compression mode : Lossy
Stream size : 525 MiB (1%)
Title : Terminator.Salvation.2009.2160p.BluRay.REMUX.HEVC.DTS-HD.MA.5.1-FGT
Language : English
Service kind : Complete Main
Default : No
Forced : No

Audio #3
ID : 4
Format : AC-3
Format/Info : Audio Coding 3
Commercial name : Dolby Digital
Codec ID : A_AC3
Duration : 1 h 54 min
Bit rate mode : Constant
Bit rate : 640 kb/s
Channel(s) : 6 channels
Channel layout : L R C LFE Ls Rs
Sampling rate : 48.0 kHz
Frame rate : 31.250 FPS (1536 SPF)
Bit depth : 16 bits
Compression mode : Lossy
Stream size : 525 MiB (1%)
Title : Terminator.Salvation.2009.2160p.BluRay.REMUX.HEVC.DTS-HD.MA.5.1-FGT
Language : Czech
Service kind : Complete Main
Default : No
Forced : No

Audio #4
ID : 5
Format : AC-3
Format/Info : Audio Coding 3
Commercial name : Dolby Digital
Codec ID : A_AC3
Duration : 1 h 54 min
Bit rate mode : Constant
Bit rate : 640 kb/s
Channel(s) : 6 channels
Channel layout : L R C LFE Ls Rs
Sampling rate : 48.0 kHz
Frame rate : 31.250 FPS (1536 SPF)
Bit depth : 16 bits
Compression mode : Lossy
Stream size : 525 MiB (1%)
Title : Terminator.Salvation.2009.2160p.BluRay.REMUX.HEVC.DTS-HD.MA.5.1-FGT
Language : French
Service kind : Complete Main
Default : No
Forced : No

Audio #5
ID : 6
Format : DTS XLL
Format/Info : Digital Theater Systems
Commercial name : DTS-HD Master Audio
Codec ID : A_DTS
Duration : 1 h 54 min
Bit rate mode : Variable
Bit rate : 2 475 kb/s
Channel(s) : 6 channels
Channel layout : C L R Ls Rs LFE
Sampling rate : 48.0 kHz
Frame rate : 93.750 FPS (512 SPF)
Bit depth : 16 bits
Compression mode : Lossless
Stream size : 1.98 GiB (4%)
Title : Terminator.Salvation.2009.2160p.BluRay.REMUX.HEVC.DTS-HD.MA.5.1-FGT
Language : German
Default : No
Forced : No

Audio #6
ID : 7
Format : AC-3
Format/Info : Audio Coding 3
Commercial name : Dolby Digital
Codec ID : A_AC3
Duration : 1 h 54 min
Bit rate mode : Constant
Bit rate : 640 kb/s
Channel(s) : 6 channels
Channel layout : L R C LFE Ls Rs
Sampling rate : 48.0 kHz
Frame rate : 31.250 FPS (1536 SPF)
Bit depth : 16 bits
Compression mode : Lossy
Stream size : 525 MiB (1%)
Title : Terminator.Salvation.2009.2160p.BluRay.REMUX.HEVC.DTS-HD.MA.5.1-FGT
Language : Hindi
Service kind : Complete Main
Default : No
Forced : No

Audio #7
ID : 8
Format : AC-3
Format/Info : Audio Coding 3
Commercial name : Dolby Digital
Codec ID : A_AC3
Duration : 1 h 54 min
Bit rate mode : Constant
Bit rate : 640 kb/s
Channel(s) : 6 channels
Channel layout : L R C LFE Ls Rs
Sampling rate : 48.0 kHz
Frame rate : 31.250 FPS (1536 SPF)
Bit depth : 16 bits
Compression mode : Lossy
Stream size : 525 MiB (1%)
Title : Terminator.Salvation.2009.2160p.BluRay.REMUX.HEVC.DTS-HD.MA.5.1-FGT
Language : Hungarian
Service kind : Complete Main
Default : No
Forced : No

Audio #8
ID : 9
Format : AC-3
Format/Info : Audio Coding 3
Commercial name : Dolby Digital
Codec ID : A_AC3
Duration : 1 h 54 min
Bit rate mode : Constant
Bit rate : 640 kb/s
Channel(s) : 6 channels
Channel layout : L R C LFE Ls Rs
Sampling rate : 48.0 kHz
Frame rate : 31.250 FPS (1536 SPF)
Bit depth : 16 bits
Compression mode : Lossy
Stream size : 525 MiB (1%)
Title : Terminator.Salvation.2009.2160p.BluRay.REMUX.HEVC.DTS-HD.MA.5.1-FGT
Language : Italian
Service kind : Complete Main
Default : No
Forced : No

Audio #9
ID : 10
Format : AC-3
Format/Info : Audio Coding 3
Commercial name : Dolby Digital
Codec ID : A_AC3
Duration : 1 h 54 min
Bit rate mode : Constant
Bit rate : 640 kb/s
Channel(s) : 6 channels
Channel layout : L R C LFE Ls Rs
Sampling rate : 48.0 kHz
Frame rate : 31.250 FPS (1536 SPF)
Bit depth : 16 bits
Compression mode : Lossy
Stream size : 525 MiB (1%)
Title : Terminator.Salvation.2009.2160p.BluRay.REMUX.HEVC.DTS-HD.MA.5.1-FGT
Language : Chinese
Service kind : Complete Main
Default : No
Forced : No

Audio #10
ID : 11
Format : AC-3
Format/Info : Audio Coding 3
Commercial name : Dolby Digital
Codec ID : A_AC3
Duration : 1 h 54 min
Bit rate mode : Constant
Bit rate : 640 kb/s
Channel(s) : 6 channels
Channel layout : L R C LFE Ls Rs
Sampling rate : 48.0 kHz
Frame rate : 31.250 FPS (1536 SPF)
Bit depth : 16 bits
Compression mode : Lossy
Stream size : 525 MiB (1%)
Title : Terminator.Salvation.2009.2160p.BluRay.REMUX.HEVC.DTS-HD.MA.5.1-FGT
Language : Polish
Service kind : Complete Main
Default : No
Forced : No

Audio #11
ID : 12
Format : DTS XLL
Format/Info : Digital Theater Systems
Commercial name : DTS-HD Master Audio
Codec ID : A_DTS
Duration : 1 h 54 min
Bit rate mode : Variable
Bit rate : 2 483 kb/s
Channel(s) : 6 channels
Channel layout : C L R Ls Rs LFE
Sampling rate : 48.0 kHz
Frame rate : 93.750 FPS (512 SPF)
Bit depth : 16 bits
Compression mode : Lossless
Stream size : 1.99 GiB (4%)
Title : Terminator.Salvation.2009.2160p.BluRay.REMUX.HEVC.DTS-HD.MA.5.1-FGT
Language : Spanish
Default : No
Forced : No

Audio #12
ID : 13
Format : AC-3
Format/Info : Audio Coding 3
Commercial name : Dolby Digital
Codec ID : A_AC3
Duration : 1 h 54 min
Bit rate mode : Constant
Bit rate : 640 kb/s
Channel(s) : 6 channels
Channel layout : L R C LFE Ls Rs
Sampling rate : 48.0 kHz
Frame rate : 31.250 FPS (1536 SPF)
Bit depth : 16 bits
Compression mode : Lossy
Stream size : 525 MiB (1%)
Title : Terminator.Salvation.2009.2160p.BluRay.REMUX.HEVC.DTS-HD.MA.5.1-FGT
Language : Thai
Service kind : Complete Main
Default : No
Forced : No

Text #1
ID : 14
Format : UTF-8
Codec ID : S_TEXT/UTF8
Codec ID/Info : UTF-8 Plain Text
Duration : 1 h 44 min
Bit rate : 32 b/s
Count of elements : 816
Stream size : 25.3 KiB (0%)
Title : English-SRT
Language : English
Default : Yes
Forced : No

Text #2
ID : 15
Format : UTF-8
Codec ID : S_TEXT/UTF8
Codec ID/Info : UTF-8 Plain Text
Duration : 1 h 46 min
Bit rate : 39 b/s
Count of elements : 1073
Stream size : 31.0 KiB (0%)
Title : English-SDH-SRT
Language : English
Default : No
Forced : No

Text #3
ID : 16
Format : PGS
Muxing mode : zlib
Codec ID : S_HDMV/PGS
Codec ID/Info : Picture based subtitle format used on BDs/HD-DVDs
Duration : 1 h 44 min
Bit rate : 18.4 kb/s
Count of elements : 1558
Stream size : 13.8 MiB (0%)
Title : English-PGS
Language : English
Default : No
Forced : No

Text #4
ID : 17
Format : PGS
Muxing mode : zlib
Codec ID : S_HDMV/PGS
Codec ID/Info : Picture based subtitle format used on BDs/HD-DVDs
Duration : 1 h 46 min
Bit rate : 23.5 kb/s
Count of elements : 2145
Stream size : 17.9 MiB (0%)
Title : English-SDH-PGS
Language : English
Default : No
Forced : No

Text #5
ID : 18
Format : PGS
Muxing mode : zlib
Codec ID : S_HDMV/PGS
Codec ID/Info : Picture based subtitle format used on BDs/HD-DVDs
Duration : 1 h 44 min
Bit rate : 10.7 kb/s
Count of elements : 1650
Stream size : 8.02 MiB (0%)
Title : Arabic-PGS
Language : Arabic
Default : No
Forced : No

Text #6
ID : 19
Format : PGS
Muxing mode : zlib
Codec ID : S_HDMV/PGS
Codec ID/Info : Picture based subtitle format used on BDs/HD-DVDs
Duration : 1 h 44 min
Bit rate : 15.5 kb/s
Count of elements : 1634
Stream size : 11.7 MiB (0%)
Title : Chinese-PGS
Language : Chinese
Default : No
Forced : No

Text #7
ID : 20
Format : PGS
Muxing mode : zlib
Codec ID : S_HDMV/PGS
Codec ID/Info : Picture based subtitle format used on BDs/HD-DVDs
Duration : 1 h 35 min
Bit rate : 541 b/s
Count of elements : 50
Stream size : 379 KiB (0%)
Title : Chinese-PGS
Language : Chinese
Default : No
Forced : No

Text #8
ID : 21
Format : PGS
Muxing mode : zlib
Codec ID : S_HDMV/PGS
Codec ID/Info : Picture based subtitle format used on BDs/HD-DVDs
Duration : 1 h 44 min
Bit rate : 15.4 kb/s
Count of elements : 1634
Stream size : 11.5 MiB (0%)
Title : Chinese-FORCED-PGS
Language : Chinese
Default : No
Forced : No

Text #9
ID : 22
Format : PGS
Muxing mode : zlib
Codec ID : S_HDMV/PGS
Codec ID/Info : Picture based subtitle format used on BDs/HD-DVDs
Duration : 1 h 52 min
Bit rate : 15.1 kb/s
Count of elements : 1600
Stream size : 12.1 MiB (0%)
Title : Czech-PGS
Language : Czech
Default : No
Forced : No

Text #10
ID : 23
Format : PGS
Muxing mode : zlib
Codec ID : S_HDMV/PGS
Codec ID/Info : Picture based subtitle format used on BDs/HD-DVDs
Duration : 1 h 52 min
Bit rate : 527 b/s
Count of elements : 46
Stream size : 436 KiB (0%)
Title : Czech-FORCED-PGS
Language : Czech
Default : No
Forced : No

Text #11
ID : 24
Format : PGS
Muxing mode : zlib
Codec ID : S_HDMV/PGS
Codec ID/Info : Picture based subtitle format used on BDs/HD-DVDs
Duration : 1 h 44 min
Bit rate : 17.6 kb/s
Count of elements : 1498
Stream size : 13.2 MiB (0%)
Title : Danish-PGS
Language : Danish
Default : No
Forced : No

Text #12
ID : 25
Format : PGS
Muxing mode : zlib
Codec ID : S_HDMV/PGS
Codec ID/Info : Picture based subtitle format used on BDs/HD-DVDs
Duration : 1 h 52 min
Bit rate : 17.5 kb/s
Count of elements : 1526
Stream size : 14.1 MiB (0%)
Title : Dutch-PGS
Language : Dutch
Default : No
Forced : No

Text #13
ID : 26
Format : PGS
Muxing mode : zlib
Codec ID : S_HDMV/PGS
Codec ID/Info : Picture based subtitle format used on BDs/HD-DVDs
Duration : 1 h 44 min
Bit rate : 19.0 kb/s
Count of elements : 1560
Stream size : 14.2 MiB (0%)
Title : Estonian-PGS
Language : Estonian
Default : No
Forced : No

Text #14
ID : 27
Format : PGS
Muxing mode : zlib
Codec ID : S_HDMV/PGS
Codec ID/Info : Picture based subtitle format used on BDs/HD-DVDs
Duration : 1 h 44 min
Bit rate : 16.5 kb/s
Count of elements : 1510
Stream size : 12.4 MiB (0%)
Title : Finnish-PGS
Language : Finnish
Default : No
Forced : No

Text #15
ID : 28
Format : PGS
Muxing mode : zlib
Codec ID : S_HDMV/PGS
Codec ID/Info : Picture based subtitle format used on BDs/HD-DVDs
Duration : 1 h 52 min
Bit rate : 14.7 kb/s
Count of elements : 1606
Stream size : 11.9 MiB (0%)
Title : French-PGS
Language : French
Default : No
Forced : No

Text #16
ID : 29
Format : PGS
Muxing mode : zlib
Codec ID : S_HDMV/PGS
Codec ID/Info : Picture based subtitle format used on BDs/HD-DVDs
Duration : 1 h 52 min
Bit rate : 697 b/s
Count of elements : 44
Stream size : 576 KiB (0%)
Title : French-FORCED-PGS
Language : French
Default : No
Forced : No

Text #17
ID : 30
Format : PGS
Muxing mode : zlib
Codec ID : S_HDMV/PGS
Codec ID/Info : Picture based subtitle format used on BDs/HD-DVDs
Duration : 1 h 44 min
Bit rate : 19.8 kb/s
Count of elements : 1760
Stream size : 14.9 MiB (0%)
Title : German-PGS
Language : German
Default : No
Forced : No

Text #18
ID : 31
Format : PGS
Muxing mode : zlib
Codec ID : S_HDMV/PGS
Codec ID/Info : Picture based subtitle format used on BDs/HD-DVDs
Duration : 1 h 17 min
Bit rate : 814 b/s
Count of elements : 34
Stream size : 463 KiB (0%)
Title : German-FORCED-PGS
Language : German
Default : No
Forced : No

Text #19
ID : 32
Format : PGS
Muxing mode : zlib
Codec ID : S_HDMV/PGS
Codec ID/Info : Picture based subtitle format used on BDs/HD-DVDs
Duration : 1 h 44 min
Bit rate : 18.9 kb/s
Count of elements : 1560
Stream size : 14.2 MiB (0%)
Title : Greek-PGS
Language : Greek
Default : No
Forced : No

Text #20
ID : 33
Format : PGS
Muxing mode : zlib
Codec ID : S_HDMV/PGS
Codec ID/Info : Picture based subtitle format used on BDs/HD-DVDs
Duration : 1 h 52 min
Bit rate : 14.6 kb/s
Count of elements : 1652
Stream size : 11.8 MiB (0%)
Title : Hindi-PGS
Language : Hindi
Default : No
Forced : No

Text #21
ID : 34
Format : PGS
Muxing mode : zlib
Codec ID : S_HDMV/PGS
Codec ID/Info : Picture based subtitle format used on BDs/HD-DVDs
Duration : 1 h 52 min
Bit rate : 788 b/s
Count of elements : 94
Stream size : 651 KiB (0%)
Title : Hindi-FORCED-PGS
Language : Hindi
Default : No
Forced : No

Text #22
ID : 35
Format : PGS
Muxing mode : zlib
Codec ID : S_HDMV/PGS
Codec ID/Info : Picture based subtitle format used on BDs/HD-DVDs
Duration : 1 h 52 min
Bit rate : 15.6 kb/s
Count of elements : 1568
Stream size : 12.6 MiB (0%)
Title : Hungarian-PGS
Language : Hungarian
Default : No
Forced : No

Text #23
ID : 36
Format : PGS
Muxing mode : zlib
Codec ID : S_HDMV/PGS
Codec ID/Info : Picture based subtitle format used on BDs/HD-DVDs
Duration : 1 h 52 min
Bit rate : 746 b/s
Count of elements : 62
Stream size : 616 KiB (0%)
Title : Hungarian-FORCED-PGS
Language : Hungarian
Default : No
Forced : No

Text #24
ID : 37
Format : PGS
Muxing mode : zlib
Codec ID : S_HDMV/PGS
Codec ID/Info : Picture based subtitle format used on BDs/HD-DVDs
Duration : 1 h 44 min
Bit rate : 20.7 kb/s
Count of elements : 1640
Stream size : 15.5 MiB (0%)
Title : Italian-PGS
Language : Italian
Default : No
Forced : No

Text #25
ID : 38
Format : PGS
Muxing mode : zlib
Codec ID : S_HDMV/PGS
Codec ID/Info : Picture based subtitle format used on BDs/HD-DVDs
Duration : 1 h 17 min
Bit rate : 902 b/s
Count of elements : 40
Stream size : 513 KiB (0%)
Title : Italian-FORCED-PGS
Language : Italian
Default : No
Forced : No

Text #26
ID : 39
Format : PGS
Muxing mode : zlib
Codec ID : S_HDMV/PGS
Codec ID/Info : Picture based subtitle format used on BDs/HD-DVDs
Duration : 1 h 44 min
Bit rate : 17.4 kb/s
Count of elements : 1624
Stream size : 13.1 MiB (0%)
Title : Lithuanian-PGS
Language : Lithuanian
Default : No
Forced : No

Text #27
ID : 40
Format : PGS
Muxing mode : zlib
Codec ID : S_HDMV/PGS
Codec ID/Info : Picture based subtitle format used on BDs/HD-DVDs
Duration : 1 h 52 min
Bit rate : 14.4 kb/s
Count of elements : 1512
Stream size : 11.6 MiB (0%)
Title : Norwegian-PGS
Language : Norwegian
Default : No
Forced : No

Text #28
ID : 41
Format : PGS
Muxing mode : zlib
Codec ID : S_HDMV/PGS
Codec ID/Info : Picture based subtitle format used on BDs/HD-DVDs
Duration : 1 h 52 min
Bit rate : 16.1 kb/s
Count of elements : 1604
Stream size : 13.0 MiB (0%)
Title : Polish-PGS
Language : Polish
Default : No
Forced : No

Text #29
ID : 42
Format : PGS
Muxing mode : zlib
Codec ID : S_HDMV/PGS
Codec ID/Info : Picture based subtitle format used on BDs/HD-DVDs
Duration : 1 h 53 min
Bit rate : 15.7 kb/s
Count of elements : 1598
Stream size : 12.8 MiB (0%)
Title : Portuguese-PGS
Language : Portuguese
Default : No
Forced : No

Text #30
ID : 43
Format : PGS
Muxing mode : zlib
Codec ID : S_HDMV/PGS
Codec ID/Info : Picture based subtitle format used on BDs/HD-DVDs
Duration : 1 h 17 min
Bit rate : 881 b/s
Count of elements : 42
Stream size : 501 KiB (0%)
Title : Portuguese-PGS
Language : Portuguese
Default : No
Forced : No

Text #31
ID : 44
Format : PGS
Muxing mode : zlib
Codec ID : S_HDMV/PGS
Codec ID/Info : Picture based subtitle format used on BDs/HD-DVDs
Duration : 1 h 53 min
Bit rate : 18.4 kb/s
Count of elements : 1660
Stream size : 14.9 MiB (0%)
Title : Portuguese-FORCED-PGS
Language : Portuguese
Default : No
Forced : No

Text #32
ID : 45
Format : PGS
Muxing mode : zlib
Codec ID : S_HDMV/PGS
Codec ID/Info : Picture based subtitle format used on BDs/HD-DVDs
Duration : 1 h 53 min
Bit rate : 17.5 kb/s
Count of elements : 1620
Stream size : 14.2 MiB (0%)
Title : Romanian-PGS
Language : Romanian
Default : No
Forced : No

Text #33
ID : 46
Format : PGS
Muxing mode : zlib
Codec ID : S_HDMV/PGS
Codec ID/Info : Picture based subtitle format used on BDs/HD-DVDs
Duration : 1 h 52 min
Bit rate : 18.9 kb/s
Count of elements : 1714
Stream size : 15.2 MiB (0%)
Title : Russian-PGS
Language : Russian
Default : No
Forced : No

Text #34
ID : 47
Format : PGS
Muxing mode : zlib
Codec ID : S_HDMV/PGS
Codec ID/Info : Picture based subtitle format used on BDs/HD-DVDs
Duration : 1 h 44 min
Bit rate : 18.3 kb/s
Count of elements : 1650
Stream size : 13.7 MiB (0%)
Title : Slovak-PGS
Language : Slovak
Default : No
Forced : No

Text #35
ID : 48
Format : PGS
Muxing mode : zlib
Codec ID : S_HDMV/PGS
Codec ID/Info : Picture based subtitle format used on BDs/HD-DVDs
Duration : 1 h 44 min
Bit rate : 17.2 kb/s
Count of elements : 1650
Stream size : 12.9 MiB (0%)
Title : Slovenian-PGS
Language : Slovenian
Default : No
Forced : No

Text #36
ID : 49
Format : PGS
Muxing mode : zlib
Codec ID : S_HDMV/PGS
Codec ID/Info : Picture based subtitle format used on BDs/HD-DVDs
Duration : 1 h 52 min
Bit rate : 16.1 kb/s
Count of elements : 1572
Stream size : 13.0 MiB (0%)
Title : Spanish-PGS
Language : Spanish
Default : No
Forced : No

Text #37
ID : 50
Format : PGS
Muxing mode : zlib
Codec ID : S_HDMV/PGS
Codec ID/Info : Picture based subtitle format used on BDs/HD-DVDs
Duration : 1 h 52 min
Bit rate : 524 b/s
Count of elements : 32
Stream size : 433 KiB (0%)
Title : Spanish-PGS
Language : Spanish
Default : No
Forced : No

Text #38
ID : 51
Format : PGS
Muxing mode : zlib
Codec ID : S_HDMV/PGS
Codec ID/Info : Picture based subtitle format used on BDs/HD-DVDs
Duration : 1 h 53 min
Bit rate : 17.3 kb/s
Count of elements : 1618
Stream size : 14.1 MiB (0%)
Title : Spanish-FORCED-PGS
Language : Spanish
Default : No
Forced : No

Text #39
ID : 52
Format : PGS
Muxing mode : zlib
Codec ID : S_HDMV/PGS
Codec ID/Info : Picture based subtitle format used on BDs/HD-DVDs
Duration : 1 h 44 min
Bit rate : 16.7 kb/s
Count of elements : 1572
Stream size : 12.5 MiB (0%)
Title : Swedish-PGS
Language : Swedish
Default : No
Forced : No

Text #40
ID : 53
Format : PGS
Muxing mode : zlib
Codec ID : S_HDMV/PGS
Codec ID/Info : Picture based subtitle format used on BDs/HD-DVDs
Duration : 1 h 44 min
Bit rate : 17.9 kb/s
Count of elements : 1650
Stream size : 13.4 MiB (0%)
Title : Thai-PGS
Language : Thai
Default : No
Forced : No

Text #41
ID : 54
Format : PGS
Muxing mode : zlib
Codec ID : S_HDMV/PGS
Codec ID/Info : Picture based subtitle format used on BDs/HD-DVDs
Duration : 1 h 35 min
Bit rate : 1 005 b/s
Count of elements : 92
Stream size : 703 KiB (0%)
Title : Thai-FORCED-PGS
Language : Thai
Default : No
Forced : No

Text #42
ID : 55
Format : PGS
Muxing mode : zlib
Codec ID : S_HDMV/PGS
Codec ID/Info : Picture based subtitle format used on BDs/HD-DVDs
Duration : 1 h 44 min
Bit rate : 18.9 kb/s
Count of elements : 1634
Stream size : 14.2 MiB (0%)
Title : Turkish-PGS
Language : Turkish
Default : No
Forced : No

Menu
00:00:00.000 : en:Chapter 01
00:04:10.667 : en:Chapter 02
00:14:30.244 : en:Chapter 03
00:21:08.016 : en:Chapter 04
00:29:11.499 : en:Chapter 05
00:34:24.896 : en:Chapter 06
00:41:06.630 : en:Chapter 07
00:50:15.721 : en:Chapter 08
00:56:19.959 : en:Chapter 09
01:06:19.183 : en:Chapter 10
01:15:24.853 : en:Chapter 11
01:22:50.548 : en:Chapter 12
01:30:35.221 : en:Chapter 13
01:34:55.481 : en:Chapter 14
01:38:53.969 : en:Chapter 15
01:42:43.657 : en:Chapter 16





1 個附件 售價 大小 下載 時間

Terminator.Salvation.2009.2160p.BluRay.REMUX.HEVC.DTS-HD.MA.5.1-FGT.torrent 0 金幣 124.07K 1421 次 5月前

#1樓
發帖時間:2019-10-28 20:23:46   |   回復數:2
jokingcheung
一代宗師
謝謝分享
5月前 #2樓
911degrees
隱世仙人♂
非常感謝,謝謝分享
5月前 #3樓
游客組