conanlcg
超級版主

[2019] [其他] [科幻] [BD-Remux] 狂犬病 Rabid.2019.1080p.BluRay.REMUX.AVC.DTS-HD.MA.5.1-FGT 16.54GB

-->

帖子完整標題:狂犬病 Rabid.2019.1080p.BluRay.REMUX.AVC.DTS-HD.MA.5.1-FGT 16.54GB




◎譯  名 狂犬病
◎片  名 Rabid
◎年  代 2019
◎產  地 加拿大 Canada
◎類  別 科幻 / 恐怖
◎語  言 英語
◎上映日期 2019-03-25(英國)
◎IMDb評分 5.5/10 from 141 users
◎IMDb鏈接 http://www.imdb.com/title/tt5628902
◎豆瓣評分 0/10 from 0 users
◎豆瓣鏈接 https://movie.douban.com/subject/30221628/
◎導  演 Jen Soska / Sylvia Soska
◎編  劇 John Serge / Jen Soska / Sylvia Soska
◎主  演 Laura Vandervoort


◎標  簽 恐怖 | 加拿大 | 翻拍 | 電影 | 驚悚 | 改編 | 加拿大電影 | SylviaSoska

◎簡  介

  What happens when you realize to achieve your dreams you have to live a nightmare? Rose is a quiet, demure, unassuming woman in her looks and action. Her dream is to become a famous designer in the fashion world, but terrible accident leaves Rose scared beyond recognition. She seeks out a radical untested stem cell treatment. The treatment is nothing short of a miracle and the wallflower turns into the bell-of-the-ball. It all seems to good to be true. She is now everything she wanted to be. But everything in life comes at a price and this new found perfect life is no exception.
Video
ID : 1
Format : AVC
Format/Info : Advanced Video Codec
Format profile : [email protected]
Format settings : CABAC / 3 Ref Frames
Format settings, CABAC : Yes
Format settings, Reference frames : 3 frames
Codec ID : V_MPEG4/ISO/AVC
Duration : 1 h 47 min
Bit rate mode : Variable
Bit rate : 20.0 Mb/s
Maximum bit rate : 35.0 Mb/s
Width : 1 920 pixels
Height : 1 080 pixels
Display aspect ratio : 16:9
Frame rate mode : Constant
Frame rate : 23.976 (24000/1001) FPS
Color space : YUV
Chroma subsampling : 4:2:0
Bit depth : 8 bits
Scan type : Progressive
Bits/(Pixel*Frame) : 0.403
Stream size : 15.1 GiB (91%)
Title : Rabid.2019.1080p.BluRay.REMUX.AVC.DTS-HD.MA.5.1-FGT
Language : English
Default : No
Forced : No

Audio
ID : 2
Format : DTS XLL
Format/Info : Digital Theater Systems
Commercial name : DTS-HD Master Audio
Codec ID : A_DTS
Duration : 1 h 47 min
Bit rate mode : Variable
Bit rate : 1 914 kb/s
Channel(s) : 6 channels
Channel layout : C L R Ls Rs LFE
Sampling rate : 48.0 kHz
Frame rate : 93.750 FPS (512 SPF)
Bit depth : 16 bits
Compression mode : Lossless
Stream size : 1.44 GiB (9%)
Title : Rabid.2019.1080p.BluRay.REMUX.AVC.DTS-HD.MA.5.1-FGT
Language : English
Default : Yes
Forced : No

Menu
00:00:00.000 : en:Chapter 01
00:06:34.143 : en:Chapter 02
00:13:32.812 : en:Chapter 03
00:23:02.422 : en:Chapter 04
00:31:55.204 : en:Chapter 05
00:40:18.499 : en:Chapter 06
00:49:49.319 : en:Chapter 07
00:58:32.884 : en:Chapter 08
01:06:35.491 : en:Chapter 09
01:15:27.648 : en:Chapter 10
01:25:41.302 : en:Chapter 11
01:40:07.543 : en:Chapter 12





1 個附件 售價 大小 下載 時間

Rabid.2019.1080p.BluRay.REMUX.AVC.DTS-HD.MA.5.1-FGT.torrent 0 金幣 83.22K 1694 次 5月前

#1樓
發帖時間:2019-10-28 20:27:43   |   回復數:1
911degrees
隱世仙人♂
非常感謝,謝謝分享
5月前 #2樓
游客組