conanlcg
超級版主

[更 早] [其他] [恐怖] [BD-Remux] 毛骨悚然的帕格尼尼 Paganini.Horror.1989.ITALIAN.1080p.BluRay.REMUX.AVC.LPCM.2.0-FGT 23.05

-->

帖子完整標題:毛骨悚然的帕格尼尼 Paganini.Horror.1989.ITALIAN.1080p.BluRay.REMUX.AVC.LPCM.2.0-FGT 23.05GB




◎譯  名 毛骨悚然的帕格尼尼 / Il violino che uccide / The Killing Violin
◎片  名 paganini horror
◎年  代 1989
◎產  地 意大利
◎類  別 恐怖 / 音樂
◎語  言 英語
◎上映日期 1989
◎IMDb評分 3.8/10 from 485 users
◎IMDb鏈接 https://www.imdb.com/title/tt0095812
◎豆瓣評分 0/10 from 0 users
◎豆瓣鏈接 https://movie.douban.com/subject/4047818/
◎片  長 82 分鐘
◎導  演 Luigi Cozzi
◎編  劇 Luigi Cozzi / Raimondo Del Balzo
◎主  演 Daria Nicolodi
      Jasmine Maimone
      Pascal Persiano
      Maria Cristina Mastrangeli
      Michel Klippstein
      Pietro Genuardi


◎標  簽 恐怖 | 音樂 | 意大利 | 帕格尼尼 | cult | 血腥 | 美國電影 | 意大利電影

◎簡  介

  一支樂隊無意間發現帕格尼尼的樂譜,決定要演奏并錄制。這時帕格尼尼的靈魂出現,接著悲劇就開始發生了……
Video
ID : 1
Format : AVC
Format/Info : Advanced Video Codec
Format profile : [email protected]
Format settings : CABAC / 4 Ref Frames
Format settings, CABAC : Yes
Format settings, Reference frames : 4 frames
Codec ID : V_MPEG4/ISO/AVC
Duration : 1 h 23 min
Bit rate mode : Constant
Bit rate : 35.0 Mb/s / 35.0 Mb/s
Width : 1 920 pixels
Height : 1 080 pixels
Display aspect ratio : 16:9
Frame rate mode : Constant
Frame rate : 23.976 (24000/1001) FPS
Standard : Component
Color space : YUV
Chroma subsampling : 4:2:0
Bit depth : 8 bits
Scan type : Progressive
Bits/(Pixel*Frame) : 0.704
Stream size : 20.2 GiB (88%)
Title : Paganini.Horror.1989.ITALIAN.1080p.BluRay.REMUX.AVC.LPCM.2.0-FGT
Writing library : x264 core 148
Encoding settings : cabac=1 / ref=4 / deblock=1:0:0 / analyse=0x3:0x113 / me=umh / subme=8 / psy=1 / psy_rd=1.00:0.00 / mixed_ref=1 / me_range=16 / chroma_me=1 / trellis=1 / 8x8dct=1 / cqm=1 / deadzone=21,11 / fast_pskip=1 / chroma_qp_offset=-2 / threads=6 / lookahead_threads=1 / sliced_threads=0 / slices=4 / nr=0 / decimate=1 / interlaced=0 / minigop=1 / stitchable=1 / constrained_intra=0 / bframes=2 / b_pyramid=0 / b_adapt=2 / b_bias=0 / direct=3 / weightb=1 / open_gop=1 / weightp=1 / keyint=24 / keyint_min=1 / scenecut=40 / intra_refresh=0 / rc_lookahead=24 / rc=cbr / mbtree=1 / bitrate=35000 / ratetol=1.0 / qcomp=0.60 / qpmin=3 / qpmax=69 / qpstep=4 / vbv_maxrate=35000 / vbv_bufsize=30000 / nal_hrd=cbr / filler=1 / ip_ratio=1.40 / aq=1:1.00
Language : English
Default : No
Forced : No
Color range : Limited
Color primaries : BT.709
Transfer characteristics : BT.709
Matrix coefficients : BT.709

Audio #1
ID : 2
Format : PCM
Format settings : Little / Signed
Codec ID : A_PCM/INT/LIT
Duration : 1 h 23 min
Bit rate mode : Constant
Bit rate : 2 304 kb/s
Channel(s) : 2 channels
Sampling rate : 48.0 kHz
Frame rate : 30.000 FPS (1600 SPF)
Bit depth : 24 bits
Stream size : 1.34 GiB (6%)
Title : Paganini.Horror.1989.ITALIAN.1080p.BluRay.REMUX.AVC.LPCM.2.0-FGT
Language : Italian
Default : Yes
Forced : No

Audio #2
ID : 3
Format : PCM
Format settings : Little / Signed
Codec ID : A_PCM/INT/LIT
Duration : 1 h 23 min
Bit rate mode : Constant
Bit rate : 2 304 kb/s
Channel(s) : 2 channels
Sampling rate : 48.0 kHz
Frame rate : 30.000 FPS (1600 SPF)
Bit depth : 24 bits
Stream size : 1.34 GiB (6%)
Title : Paganini.Horror.1989.ITALIAN.1080p.BluRay.REMUX.AVC.LPCM.2.0-FGT
Language : English
Default : No
Forced : No

Audio #3
ID : 4
Format : AC-3
Format/Info : Audio Coding 3
Commercial name : Dolby Digital
Codec ID : A_AC3
Duration : 1 h 23 min
Bit rate mode : Constant
Bit rate : 224 kb/s
Channel(s) : 2 channels
Channel layout : L R
Sampling rate : 48.0 kHz
Frame rate : 31.250 FPS (1536 SPF)
Bit depth : 16 bits
Compression mode : Lossy
Stream size : 134 MiB (1%)
Title : Paganini.Horror.1989.ITALIAN.1080p.BluRay.REMUX.AVC.LPCM.2.0-FGT
Language : English
Service kind : Complete Main
Default : No
Forced : No

Text #1
ID : 5
Format : PGS
Muxing mode : zlib
Codec ID : S_HDMV/PGS
Codec ID/Info : Picture based subtitle format used on BDs/HD-DVDs
Duration : 1 h 23 min
Bit rate : 40.8 kb/s
Count of elements : 2234
Stream size : 24.4 MiB (0%)
Title : English-PGS
Language : English
Default : Yes
Forced : No

Text #2
ID : 6
Format : PGS
Muxing mode : zlib
Codec ID : S_HDMV/PGS
Codec ID/Info : Picture based subtitle format used on BDs/HD-DVDs
Duration : 1 h 19 min
Bit rate : 31.7 kb/s
Count of elements : 1344
Stream size : 18.0 MiB (0%)
Title : Italian-PGS
Language : Italian
Default : No
Forced : No

Menu
00:00:00.000 : en:Chapter 01
00:09:10.091 : en:Chapter 02
00:22:05.824 : en:Chapter 03
00:33:58.244 : en:Chapter 04
00:45:46.452 : en:Chapter 05
00:58:16.826 : en:Chapter 06
01:06:34.532 : en:Chapter 07
01:16:49.438 : en:Chapter 08
01:23:25.834 : en:Chapter 09





1 個附件 售價 大小 下載 時間

Paganini.Horror.1989.ITALIAN.1080p.BluRay.REMUX.AVC.LPCM.2.0-FGT.torrent 0 金幣 58.19K 868 次 5月前

#1樓
發帖時間:2019-10-28 20:30:07   |   回復數:1
911degrees
隱世仙人♂
非常感謝,謝謝分享
5月前 #2樓
游客組