conanlcg
超級版主

[更 早] [歐美] [其他] [WEB-1080P] 白色的荒地/白色荒野 White.Wilderness.1958.1080p.AMZN.WEBRip.DDP2.0.x264-ABM 5.70GB

-->

帖子完整標題:白色的荒地/白色荒野 White.Wilderness.1958.1080p.AMZN.WEBRip.DDP2.0.x264-ABM 5.70GB




◎譯  名 白色的荒地 / 白色荒野
◎片  名 White Wilderness
◎年  代 1958
◎產  地 美國
◎類  別 紀錄片 / 家庭
◎語  言 英語
◎上映日期 1958-08-12
◎IMDb評分 5.1/10 from 339 users
◎IMDb鏈接 https://www.imdb.com/title/tt0052389
◎豆瓣評分 0/10 from 0 users
◎豆瓣鏈接 https://movie.douban.com/subject/2287131/
◎片  長 72 分鐘
◎導  演 James Algar
◎主  演 Winston Hibler


◎標  簽 紀錄片 | 旅鼠自殺 | 生物 | 美國電影 | 美國 | 電影 | 奧斯卡最佳紀錄長片 | 迪斯尼

◎簡  介

  暫無相關劇情介紹

◎獲獎情況

  第31屆奧斯卡金像獎(1959)
  最佳紀錄長片 賓·沙普斯坦
  劇情/喜劇片最佳配樂(提名) Oliver Wallace

  第9屆柏林國際電影節(1959)
  金熊獎 最佳紀錄片(提名) 詹姆斯·阿爾格
Video
ID : 1
Format : AVC
Format/Info : Advanced Video Codec
Format profile : [email protected]
Format settings : CABAC / 4 Ref Frames
Format settings, CABAC : Yes
Format settings, Reference frames : 4 frames
Codec ID : V_MPEG4/ISO/AVC
Duration : 1 h 12 min
Bit rate mode : Variable
Bit rate : 11.1 Mb/s
Maximum bit rate : 15.0 Mb/s
Width : 1 440 pixels
Height : 1 080 pixels
Display aspect ratio : 4:3
Frame rate mode : Constant
Frame rate : 23.976 (24000/1001) FPS
Color space : YUV
Chroma subsampling : 4:2:0
Bit depth : 8 bits
Scan type : Progressive
Bits/(Pixel*Frame) : 0.296
Stream size : 5.59 GiB (98%)
Writing library : x264 core 148 r2623 d5b2374
Encoding settings : cabac=1 / ref=4 / deblock=1:-1:-1 / analyse=0x3:0x133 / me=umh / subme=9 / psy=1 / psy_rd=1.00:0.15 / mixed_ref=1 / me_range=24 / chroma_me=1 / trellis=2 / 8x8dct=1 / cqm=0 / deadzone=21,11 / fast_pskip=1 / chroma_qp_offset=-3 / threads=34 / lookahead_threads=5 / sliced_threads=0 / nr=150 / decimate=1 / interlaced=0 / bluray_compat=0 / constrained_intra=0 / bframes=8 / b_pyramid=2 / b_adapt=2 / b_bias=0 / direct=3 / weightb=1 / open_gop=0 / weightp=2 / keyint=120 / keyint_min=61 / scenecut=0 / intra_refresh=0 / rc_lookahead=120 / rc=crf / mbtree=1 / crf=18.0 / qcomp=0.60 / qpmin=0 / qpmax=69 / qpstep=4 / vbv_maxrate=15000 / vbv_bufsize=31250 / crf_max=0.0 / nal_hrd=vbr / filler=0 / ip_ratio=1.40 / aq=3:1.00
Default : Yes
Forced : No
Color range : Limited
Color primaries : BT.709
Transfer characteristics : BT.709
Matrix coefficients : BT.709

Audio
ID : 2
Format : E-AC-3
Format/Info : Enhanced AC-3
Commercial name : Dolby Digital Plus
Codec ID : A_EAC3
Duration : 1 h 12 min
Bit rate mode : Constant
Bit rate : 224 kb/s
Channel(s) : 2 channels
Channel layout : L R
Sampling rate : 48.0 kHz
Frame rate : 31.250 FPS (1536 SPF)
Compression mode : Lossy
Stream size : 116 MiB (2%)
Language : English
Service kind : Complete Main
Default : Yes
Forced : No

Text
ID : 3
Format : UTF-8
Codec ID : S_TEXT/UTF8
Codec ID/Info : UTF-8 Plain Text
Duration : 1 h 10 min
Bit rate : 72 b/s
Count of elements : 977
Stream size : 37.5 KiB (0%)
Title : SDH
Language : English
Default : No
Forced : No





#1樓
發帖時間:2019-10-28 20:57:03   |   回復數:1
911degrees
隱世仙人♂
非常感謝,謝謝分享
5月前 #2樓
游客組