conanlcg
超級版主

[2019] [歐美] [恐怖] [BD-4K] 在黑暗中講述的恐怖故事/在黑暗中說的鬼故事 Scary.Stories.to.Tell.in.the.Dark.2019.2160p.BluRay.x264.8

-->

帖子完整標題:在黑暗中講述的恐怖故事/在黑暗中說的鬼故事 Scary.Stories.to.Tell.in.the.Dark.2019.2160p.BluRay.x264.8bit.SDR.DTS-HD.MA.TrueHD.5.1-SWTYBLZ 22.07GB




◎譯  名 在黑暗中講述的恐怖故事 / 在黑暗中說的鬼故事(臺) / 講鬼故(港) / 黑暗恐怖故事
◎片  名 Scary Stories to Tell in the Dark
◎年  代 2019
◎產  地 美國
◎類  別 恐怖
◎語  言 英語
◎上映日期 2019-08-09(美國)
◎IMDb評分 6.4/10 from 20523 users
◎IMDb鏈接 https://www.imdb.com/title/tt3387520
◎豆瓣評分 6.1/10 from 2971 users
◎豆瓣鏈接 https://movie.douban.com/subject/26278747/
◎片  長 108分鐘
◎導  演 安德烈·艾弗道夫 André ?vredal
◎編  劇 約翰·奧古斯特 John August / 馬庫斯·鄧斯坦 Marcus Dunstan / 丹·哈格曼 Dan Hageman / 凱文·哈格曼 Kevin Hageman / 帕特里克·梅爾頓 Patrick Melton / 艾爾文·史瓦茲 Alvin Schwartz / 吉爾莫·德爾·托羅 Guillermo del Toro
◎主  演 佐伊·瑪格麗特·科萊蒂 Zoe Margaret Colletti
      邁克爾·加爾扎 Michael Garza
      加布里埃爾·拉什 Gabriel Rush
      吉爾·貝羅斯 Gil Bellows
      哈維爾·博泰特 Javier Botet
      迪恩·諾里斯 Dean Norris
      洛萊妮·圖桑特 Lorraine Toussaint
      奧斯汀·艾布拉姆斯 Austin Abrams
      馬克·斯達格 Mark Steger
      斯蒂芬妮·貝爾丁 Stephanie Belding
      簡·莫凡特 Jane Moffat


◎標  簽 恐怖 | 驚悚 | 美國 | 2019 | 靈異 | 改編 | 在黑暗中講述的恐怖故事 | 科幻

◎簡  介

  安德烈·艾弗道夫([無名女尸])接替吉爾莫·德爾·托羅執導[在黑暗中講述的恐怖故事],丹·哈格曼、凱文·哈格曼操刀劇本,CBS負責影片制作。而托羅將擔任制片人。該片根據艾文·施瓦茲的同名小說改編,故事圍繞一群年輕人展開,小鎮頻發死亡事件,他們必須找出背后的秘密。本片明年夏天開拍。
Video
ID : 1
Format : AVC
Format/Info : Advanced Video Codec
Format profile : [email protected]
Format settings : CABAC / 5 Ref Frames
Format settings, CABAC : Yes
Format settings, Reference frames : 5 frames
Codec ID : V_MPEG4/ISO/AVC
Duration : 1 h 47 min
Bit rate : 23.6 Mb/s
Width : 3 840 pixels
Height : 1 610 pixels
Display aspect ratio : 2.40:1
Frame rate mode : Constant
Frame rate : 23.976 (24000/1001) FPS
Color space : YUV
Chroma subsampling : 4:2:0
Bit depth : 8 bits
Scan type : Progressive
Bits/(Pixel*Frame) : 0.159
Stream size : 17.8 GiB (81%)
Title : Scary.Stories.to.Tell.in.the.Dark.2019.2160p.BluRay.x264.8bit.SDR.DTS-HD.MA.TrueHD.5.1-SWTYBLZ
Writing library : x264 core 157 r2935 545de2f
Encoding settings : cabac=1 / ref=5 / deblock=1:-1:-1 / analyse=0x3:0x113 / me=umh / subme=10 / psy=1 / psy_rd=1.00:0.15 / mixed_ref=1 / me_range=48 / chroma_me=1 / trellis=2 / 8x8dct=1 / cqm=0 / deadzone=21,11 / fast_pskip=1 / chroma_qp_offset=-3 / threads=48 / lookahead_threads=4 / sliced_threads=0 / nr=0 / decimate=0 / interlaced=0 / bluray_compat=0 / constrained_intra=0 / bframes=3 / b_pyramid=2 / b_adapt=2 / b_bias=0 / direct=3 / weightb=1 / open_gop=0 / weightp=2 / keyint=250 / keyint_min=23 / scenecut=40 / intra_refresh=0 / rc_lookahead=50 / rc=crf / mbtree=1 / crf=18.0 / qcomp=0.60 / qpmin=0 / qpmax=69 / qpstep=4 / ip_ratio=1.40 / aq=1:1.00
Language : English
Default : Yes
Forced : No

Audio #1
ID : 2
Format : MLP FBA
Format/Info : Meridian Lossless Packing FBA
Commercial name : Dolby TrueHD
Codec ID : A_TRUEHD
Duration : 1 h 47 min
Bit rate mode : Variable
Bit rate : 1 714 kb/s
Maximum bit rate : 3 150 kb/s
Channel(s) : 6 channels
Channel layout : L R C LFE Ls Rs
Sampling rate : 48.0 kHz
Frame rate : 1 200.000 FPS (40 SPF)
Compression mode : Lossless
Stream size : 1.29 GiB (6%)
Title : Scary.Stories.to.Tell.in.the.Dark.2019.2160p.BluRay.x264.8bit.SDR.DTS-HD.MA.TrueHD.5.1-SWTYBLZ
Language : English
Default : Yes
Forced : No

Audio #2
ID : 3
Format : DTS XLL
Format/Info : Digital Theater Systems
Commercial name : DTS-HD Master Audio
Codec ID : A_DTS
Duration : 1 h 47 min
Bit rate mode : Variable
Bit rate : 3 061 kb/s
Channel(s) : 6 channels
Channel layout : C L R Ls Rs LFE
Sampling rate : 48.0 kHz
Frame rate : 93.750 FPS (512 SPF)
Bit depth : 24 bits
Compression mode : Lossless
Stream size : 2.31 GiB (10%)
Title : Scary.Stories.to.Tell.in.the.Dark.2019.2160p.BluRay.x264.8bit.SDR.DTS-HD.MA.TrueHD.5.1-SWTYBLZ
Language : English
Default : No
Forced : No

Audio #3
ID : 4
Format : AC-3
Format/Info : Audio Coding 3
Commercial name : Dolby Digital
Codec ID : A_AC3
Duration : 1 h 47 min
Bit rate mode : Constant
Bit rate : 640 kb/s
Channel(s) : 6 channels
Channel layout : L R C LFE Ls Rs
Sampling rate : 48.0 kHz
Frame rate : 31.250 FPS (1536 SPF)
Bit depth : 16 bits
Compression mode : Lossy
Stream size : 494 MiB (2%)
Title : Scary.Stories.to.Tell.in.the.Dark.2019.2160p.BluRay.x264.8bit.SDR.DTS-HD.MA.TrueHD.5.1-SWTYBLZ
Language : English
Service kind : Complete Main
Default : No
Forced : No

Text #1
ID : 5
Format : UTF-8
Codec ID : S_TEXT/UTF8
Codec ID/Info : UTF-8 Plain Text
Duration : 1 h 39 min
Bit rate : 45 b/s
Count of elements : 1244
Stream size : 32.8 KiB (0%)
Title : English-SRT
Language : English
Default : Yes
Forced : No

Text #2
ID : 6
Format : PGS
Muxing mode : zlib
Codec ID : S_HDMV/PGS
Codec ID/Info : Picture based subtitle format used on BDs/HD-DVDs
Duration : 1 h 43 min
Bit rate : 30.3 kb/s
Count of elements : 2304
Stream size : 22.5 MiB (0%)
Title : English-PGS
Language : English
Default : No
Forced : No

Text #3
ID : 7
Format : PGS
Muxing mode : zlib
Codec ID : S_HDMV/PGS
Codec ID/Info : Picture based subtitle format used on BDs/HD-DVDs
Duration : 1 h 43 min
Bit rate : 36.0 kb/s
Count of elements : 2630
Stream size : 26.8 MiB (0%)
Title : English-SDH-PGS
Language : English
Default : No
Forced : No

Text #4
ID : 8
Format : PGS
Muxing mode : zlib
Codec ID : S_HDMV/PGS
Codec ID/Info : Picture based subtitle format used on BDs/HD-DVDs
Duration : 1 h 39 min
Bit rate : 28.2 kb/s
Count of elements : 2194
Stream size : 20.1 MiB (0%)
Title : Spanish-PGS
Language : Spanish
Default : No
Forced : No

Menu
00:00:00.000 : en:Chapter 01
00:05:44.386 : en:Chapter 02
00:13:23.052 : en:Chapter 03
00:18:52.131 : en:Chapter 04
00:25:34.742 : en:Chapter 05
00:28:31.168 : en:Chapter 06
00:36:17.300 : en:Chapter 07
00:47:06.282 : en:Chapter 08
00:54:17.171 : en:Chapter 09
00:58:36.304 : en:Chapter 10
01:02:36.378 : en:Chapter 11
01:11:04.677 : en:Chapter 12
01:17:59.425 : en:Chapter 13
01:24:33.902 : en:Chapter 14
01:29:53.179 : en:Chapter 15
01:38:30.279 : en:Chapter 16





1 個附件 售價 大小 下載 時間

Scary.Stories.to.Tell.in.the.Dark.2019.2160p.BluRay.x264.8bit.SDR.DTS-HD.MA.TrueHD.5.1-SWTYBLZ.torrent 0 金幣 55.84K 735 次 5月前

#1樓
發帖時間:2019-10-28 23:54:23   |   回復數:2
liyouchai
隱世仙人♂
謝謝樓主分享資源
5月前 #2樓
911degrees
隱世仙人♂
非常感謝,謝謝分享
5月前 #3樓
游客組