conanlcg
超級版主

[2007] [其他] [WEB-1080P] 死亡預言/女子聯誼會驚魂記 The.Haunting.Of.Sorority.Row.2007.1080p.AMZN.WEBRip.DDP2.0.x264-AB

-->

帖子完整標題:死亡預言/女子聯誼會驚魂記 The.Haunting.Of.Sorority.Row.2007.1080p.AMZN.WEBRip.DDP2.0.x264-ABM 6.23GB




◎譯  名 死亡預言 / 女子聯誼會驚魂記
◎片  名 The Haunting of Sorority Row
◎年  代 2007
◎產  地 加拿大
◎語  言 英語
◎上映日期 2007-10-06
◎IMDb評分 4.8/10 from 1246 users
◎IMDb鏈接 https://www.imdb.com/title/tt1110048
◎豆瓣評分 5.3/10 from 690 users
◎豆瓣鏈接 https://movie.douban.com/subject/3436040/
◎導  演 Bert Kish
◎編  劇 Jed Seidel / Michael Vickerman
◎主  演 Leighton Meester
      Kailin See
      Lisa Marie Caruk
      Agam Darshi
      Meghan Ory
      Adrian Petriw


◎標  簽 驚悚 | 恐怖 | 美國 | 恐怖電影 | 美國電影 | LeightonMeester | Leighton | 英語的標簽

◎簡  介

  清純女孩薩曼莎·韋羅斯(雷登·米斯特 Leighton Meester 飾)是剛剛進入大學校園的新新人類,她與舍友惠特妮·西森斯、珍妮·霍登(凱琳·西 Kailin See 飾)志愿加入戴爾他派西達(4219)姐妹會。4219姐妹會內曾經走出無數的精英女性,成為她們中的一員是每個擁有遠大理想女孩的必經之路。
  姐妹會的紀律嚴明,諸位學姐更是高高在上,趾高氣揚。為了成為正式會員,薩曼莎用心學習,甚至不得不和高中時期的男友奧利弗(亞德蘭·佩特夫 Adrian Petriw 飾)分手。在這一過程中,姐妹會的歷屆成員接連有人死亡。薩曼莎隱隱感覺,看似光鮮亮麗的4219姐妹會的背后,似乎隱藏著不為人知的陰暗秘密……
Video
ID : 1
Format : AVC
Format/Info : Advanced Video Codec
Format profile : [email protected]
Format settings : CABAC / 4 Ref Frames
Format settings, CABAC : Yes
Format settings, Reference frames : 4 frames
Codec ID : V_MPEG4/ISO/AVC
Duration : 1 h 30 min
Bit rate mode : Constant
Bit rate : 10 000 kb/s
Width : 1 920 pixels
Height : 1 080 pixels
Display aspect ratio : 16:9
Frame rate mode : Constant
Frame rate : 23.976 (24000/1001) FPS
Color space : YUV
Chroma subsampling : 4:2:0
Bit depth : 8 bits
Scan type : Progressive
Bits/(Pixel*Frame) : 0.201
Stream size : 6.09 GiB (98%)
Language : English
Default : Yes
Forced : No
Color range : Limited
Color primaries : BT.709
Transfer characteristics : BT.709
Matrix coefficients : BT.709

Audio
ID : 2
Format : E-AC-3
Format/Info : Enhanced AC-3
Commercial name : Dolby Digital Plus
Codec ID : A_EAC3
Duration : 1 h 30 min
Bit rate mode : Constant
Bit rate : 224 kb/s
Channel(s) : 2 channels
Channel layout : L R
Sampling rate : 48.0 kHz
Frame rate : 31.250 FPS (1536 SPF)
Compression mode : Lossy
Stream size : 146 MiB (2%)
Language : English
Service kind : Complete Main
Default : Yes
Forced : No

Text
ID : 3
Format : UTF-8
Codec ID : S_TEXT/UTF8
Codec ID/Info : UTF-8 Plain Text
Duration : 1 h 29 min
Bit rate : 54 b/s
Count of elements : 1515
Stream size : 35.6 KiB (0%)
Language : English
Default : No
Forced : No





1 個附件 售價 大小 下載 時間

The.Haunting.Of.Sorority.Row.2007.1080p.AMZN.WEBRip.DDP2.0.x264-ABM.torrent 0 金幣 31.73K 259 次 5月前

#1樓
發帖時間:2019-10-29 00:02:07   |   回復數:1
911degrees
隱世仙人♂
非常感謝,謝謝分享
5月前 #2樓
游客組