conanlcg
超級版主

[更 早] [歐美] [喜劇] [WEB-1080P] 烏龍元首 Head.Of.State.2003.1080p.AMZN.WEBRip.DDP5.1.x264-pawel2006 9.54GB

-->

帖子完整標題:烏龍元首 Head.Of.State.2003.1080p.AMZN.WEBRip.DDP5.1.x264-pawel2006 9.54GB




◎譯  名 烏龍元首
◎片  名 Head of State
◎年  代 2003
◎產  地 美國
◎類  別 喜劇
◎語  言 英語
◎上映日期 2003-03-28
◎IMDb評分 5.5/10 from 17285 users
◎IMDb鏈接 https://www.imdb.com/title/tt0325537
◎豆瓣評分 6.7/10 from 315 users
◎豆瓣鏈接 https://movie.douban.com/subject/1307828/
◎片  長 95 分鐘
◎導  演 Chris Rock
◎編  劇 Ali LeRoi / Chris Rock
◎主  演 Chris Rock
      Bernie Mac
      Dylan Baker


◎標  簽 喜劇 | 美國 | 搞笑 | 美國電影 | 政治 | 電影 | 2003 | 競選總統

◎簡  介

  梅斯(克里斯·洛克 飾)是華盛頓一個前途渺茫的小議員,親人和未婚妻先后棄他而去,誰知最近發生的一件事竟然讓梅斯咸魚翻身,原來此時正值總統大選,代表民主黨參選的候選人突然遇刺身亡,情急之下,梅斯被推上了前臺,委以競選下屆美國總統的重任。
  小議員成了總統候選人,梅斯的哥哥和未婚妻重新回到了梅斯的身邊,所有的人都對他堆滿笑臉,臺前、幕后,形形色色的人懷揣著各自的目的上演了一出大選鬧劇......
Video
ID : 1
Format : AVC
Format/Info : Advanced Video Codec
Format profile : [email protected]
Format settings : CABAC / 4 Ref Frames
Format settings, CABAC : Yes
Format settings, Reference frames : 4 frames
Codec ID : V_MPEG4/ISO/AVC
Duration : 1 h 35 min
Bit rate mode : Variable
Bit rate : 13.7 Mb/s
Maximum bit rate : 15.0 Mb/s
Width : 1 920 pixels
Height : 1 080 pixels
Display aspect ratio : 16:9
Frame rate mode : Constant
Frame rate : 23.976 (24000/1001) FPS
Color space : YUV
Chroma subsampling : 4:2:0
Bit depth : 8 bits
Scan type : Progressive
Bits/(Pixel*Frame) : 0.275
Stream size : 9.11 GiB (96%)
Default : Yes
Forced : No
Color range : Limited
Color primaries : BT.709
Transfer characteristics : BT.709
Matrix coefficients : BT.709

Audio
ID : 2
Format : E-AC-3
Format/Info : Enhanced AC-3
Commercial name : Dolby Digital Plus
Codec ID : A_EAC3
Duration : 1 h 35 min
Bit rate mode : Constant
Bit rate : 640 kb/s
Channel(s) : 6 channels
Channel layout : L R C LFE Ls Rs
Sampling rate : 48.0 kHz
Frame rate : 31.250 FPS (1536 SPF)
Compression mode : Lossy
Stream size : 436 MiB (4%)
Title : English
Language : English
Service kind : Complete Main
Default : Yes
Forced : No

Text #1
ID : 3
Format : UTF-8
Codec ID : S_TEXT/UTF8
Codec ID/Info : UTF-8 Plain Text
Duration : 1 h 28 min
Bit rate : 87 b/s
Count of elements : 1419
Stream size : 56.4 KiB (0%)
Title : English [Full]
Language : English
Default : No
Forced : No

Text #2
ID : 4
Format : UTF-8
Codec ID : S_TEXT/UTF8
Codec ID/Info : UTF-8 Plain Text
Duration : 1 h 30 min
Bit rate : 110 b/s
Count of elements : 2329
Stream size : 73.4 KiB (0%)
Title : English [SDH]
Language : English
Default : No
Forced : No

Text #3
ID : 5
Format : UTF-8
Codec ID : S_TEXT/UTF8
Codec ID/Info : UTF-8 Plain Text
Duration : 1 h 28 min
Bit rate : 80 b/s
Count of elements : 1359
Stream size : 52.0 KiB (0%)
Title : Castilian [Full]
Language : Spanish
Default : No
Forced : No

Text #4
ID : 6
Format : UTF-8
Codec ID : S_TEXT/UTF8
Codec ID/Info : UTF-8 Plain Text
Duration : 1 h 28 min
Bit rate : 86 b/s
Count of elements : 1439
Stream size : 56.3 KiB (0%)
Title : Spanish [Full]
Language : Spanish
Default : No
Forced : No

Text #5
ID : 7
Format : UTF-8
Codec ID : S_TEXT/UTF8
Codec ID/Info : UTF-8 Plain Text
Duration : 1 h 28 min
Bit rate : 85 b/s
Count of elements : 1402
Stream size : 55.7 KiB (0%)
Title : French [Full]
Language : French
Default : No
Forced : No

Text #6
ID : 8
Format : UTF-8
Codec ID : S_TEXT/UTF8
Codec ID/Info : UTF-8 Plain Text
Duration : 1 h 28 min
Bit rate : 84 b/s
Count of elements : 1365
Stream size : 54.9 KiB (0%)
Title : German [Full]
Language : German
Default : No
Forced : No

Text #7
ID : 9
Format : UTF-8
Codec ID : S_TEXT/UTF8
Codec ID/Info : UTF-8 Plain Text
Duration : 1 h 28 min
Bit rate : 85 b/s
Count of elements : 1385
Stream size : 55.2 KiB (0%)
Title : Italian [Full]
Language : Italian
Default : No
Forced : No

Text #8
ID : 10
Format : UTF-8
Codec ID : S_TEXT/UTF8
Codec ID/Info : UTF-8 Plain Text
Duration : 1 h 28 min
Bit rate : 87 b/s
Count of elements : 1361
Stream size : 57.0 KiB (0%)
Title : Brazilian Portuguese [Full]
Language : Portuguese
Default : No
Forced : No

Text #9
ID : 11
Format : UTF-8
Codec ID : S_TEXT/UTF8
Codec ID/Info : UTF-8 Plain Text
Duration : 1 h 28 min
Bit rate : 78 b/s
Count of elements : 1360
Stream size : 51.1 KiB (0%)
Title : Polish [Full]
Language : Polish
Default : No
Forced : No

Text #10
ID : 12
Format : UTF-8
Codec ID : S_TEXT/UTF8
Codec ID/Info : UTF-8 Plain Text
Duration : 1 h 28 min
Bit rate : 79 b/s
Count of elements : 1365
Stream size : 51.2 KiB (0%)
Title : Turkish [Full]
Language : Turkish
Default : No
Forced : No

Text #11
ID : 13
Format : UTF-8
Codec ID : S_TEXT/UTF8
Codec ID/Info : UTF-8 Plain Text
Duration : 1 h 28 min
Bit rate : 72 b/s
Count of elements : 1290
Stream size : 46.9 KiB (0%)
Title : Dutch [Full]
Language : Dutch
Default : No
Forced : No

Text #12
ID : 14
Format : UTF-8
Codec ID : S_TEXT/UTF8
Codec ID/Info : UTF-8 Plain Text
Duration : 1 h 28 min
Bit rate : 129 b/s
Count of elements : 1377
Stream size : 84.2 KiB (0%)
Title : Russian [Full]
Language : Russian
Default : No
Forced : No

Text #13
ID : 15
Format : UTF-8
Codec ID : S_TEXT/UTF8
Codec ID/Info : UTF-8 Plain Text
Duration : 1 h 28 min
Bit rate : 135 b/s
Count of elements : 1366
Stream size : 87.5 KiB (0%)
Title : Arabic [Full]
Language : Arabic
Default : No
Forced : No

Text #14
ID : 16
Format : UTF-8
Codec ID : S_TEXT/UTF8
Codec ID/Info : UTF-8 Plain Text
Duration : 1 h 28 min
Bit rate : 71 b/s
Count of elements : 1364
Stream size : 46.4 KiB (0%)
Title : Chinese (Simplified) [Full]
Language : Chinese
Default : No
Forced : No

Text #15
ID : 17
Format : UTF-8
Codec ID : S_TEXT/UTF8
Codec ID/Info : UTF-8 Plain Text
Duration : 1 h 28 min
Bit rate : 74 b/s
Count of elements : 1437
Stream size : 48.2 KiB (0%)
Title : Chinese (Traditional) [Full]
Language : Chinese
Default : No
Forced : No

Text #16
ID : 18
Format : UTF-8
Codec ID : S_TEXT/UTF8
Codec ID/Info : UTF-8 Plain Text
Duration : 1 h 28 min
Bit rate : 63 b/s
Count of elements : 1555
Stream size : 40.9 KiB (0%)
Title : Japanese [Full]
Language : Japanese
Default : No
Forced : No

Menu
00:00:00.000 : en:Studio Logo
00:00:23.000 : en:Opening Credits
00:01:37.000 : en:Escaping Rattrap
00:05:41.000 : en:Never hang up on your girlfriend
00:09:10.000 : en:A common man who works for common people
00:17:49.000 : en:Duties and fundraising event
00:26:47.000 : en:It ain\'t right
00:36:05.000 : en:Change in strategy
00:40:32.000 : en:7 weeks to election
00:46:11.000 : en:Crib malt liquor
00:53:58.000 : en:Mays find out the truth
00:57:59.000 : en:Just run your race
01:05:02.000 : en:The big debate
01:17:05.000 : en:The counting started
01:21:06.000 : en:The big day
01:27:35.000 : en:End Credits





1 個附件 售價 大小 下載 時間

Head.Of.State.2003.1080p.AMZN.WEBRip.DDP5.1.x264-pawel2006.torrent 0 金幣 48.23K 413 次 5月前

#1樓
發帖時間:2019-10-29 00:11:29   |   回復數:1
911degrees
隱世仙人♂
非常感謝,謝謝分享
5月前 #2樓
游客組