conanlcg
超級版主

[更 早] [歐美] [喜劇] [BD-Remux] 法網神鷹 Legal.Eagles.1986.1080p.BluRay.REMUX.AVC.DTS-HD.MA.2.0-FGT 19.01GB

-->

帖子完整標題:法網神鷹 Legal.Eagles.1986.1080p.BluRay.REMUX.AVC.DTS-HD.MA.2.0-FGT 19.01GB




◎譯  名 法網神鷹
◎片  名 Legal Eagles
◎年  代 1986
◎產  地 美國
◎類  別 喜劇 / 愛情 / 犯罪
◎語  言 英語
◎上映日期 1986-06-18
◎IMDb評分 6.0/10 from 9243 users
◎IMDb鏈接 http://www.imdb.com/title/tt0091396
◎豆瓣評分 6.7/10 from 87 users
◎豆瓣鏈接 https://movie.douban.com/subject/1296729/
◎片  長 116 分鐘
◎導  演 伊萬·雷特曼 Ivan Reitman
◎編  劇 Jack Epps Jr. / Jim Cash
◎主  演 羅伯特·雷德福 Robert Redford
      Debra Winger
      Daryl Hannah


◎標  簽 美國 | 美國電影 | 愛情 | 1986 | 電影 | 犯罪 | 1980s | 經典

◎簡  介

  一向公正的地方檢察官湯姆羅根在處理雀爾喜竊盜名畫案時,發現整個案件并不單純,似乎有官員介入此案;經過暗中調查后,事實的真相漸漸浮現,而他也面臨突來的危機...
Video
ID : 1
Format : AVC
Format/Info : Advanced Video Codec
Format profile : [email protected]
Format settings : CABAC / 4 Ref Frames
Format settings, CABAC : Yes
Format settings, Reference frames : 4 frames
Format settings, GOP : M=3, N=12
Codec ID : V_MPEG4/ISO/AVC
Duration : 1 h 55 min
Bit rate mode : Variable
Bit rate : 21.4 Mb/s
Maximum bit rate : 30.0 Mb/s
Width : 1 920 pixels
Height : 1 080 pixels
Display aspect ratio : 16:9
Frame rate mode : Constant
Frame rate : 23.976 (24000/1001) FPS
Color space : YUV
Chroma subsampling : 4:2:0
Bit depth : 8 bits
Scan type : Progressive
Bits/(Pixel*Frame) : 0.431
Stream size : 17.3 GiB (91%)
Title : Legal.Eagles.1986.1080p.BluRay.REMUX.AVC.DTS-HD.MA.2.0-FGT
Language : English
Default : No
Forced : No

Audio
ID : 2
Format : DTS XLL
Format/Info : Digital Theater Systems
Commercial name : DTS-HD Master Audio
Codec ID : A_DTS
Duration : 1 h 55 min
Bit rate mode : Variable
Bit rate : 2 091 kb/s
Channel(s) : 2 channels
Channel layout : L R
Sampling rate : 48.0 kHz
Frame rate : 93.750 FPS (512 SPF)
Bit depth : 24 bits
Compression mode : Lossless
Stream size : 1.69 GiB (9%)
Title : Legal.Eagles.1986.1080p.BluRay.REMUX.AVC.DTS-HD.MA.2.0-FGT
Language : English
Default : Yes
Forced : No

Text
ID : 3
Format : PGS
Muxing mode : zlib
Codec ID : S_HDMV/PGS
Codec ID/Info : Picture based subtitle format used on BDs/HD-DVDs
Duration : 1 h 50 min
Bit rate : 44.9 kb/s
Count of elements : 3053
Stream size : 35.5 MiB (0%)
Title : English-PGS
Language : English
Default : Yes
Forced : No

Menu
00:00:00.000 : en:Chapter 01
00:04:47.996 : en:Chapter 02
00:18:01.413 : en:Chapter 03
00:28:21.825 : en:Chapter 04
00:39:31.911 : en:Chapter 05
00:50:24.730 : en:Chapter 06
00:59:18.346 : en:Chapter 07
01:07:27.543 : en:Chapter 08
01:20:02.047 : en:Chapter 09
01:28:03.528 : en:Chapter 10
01:38:40.539 : en:Chapter 11
01:51:00.111 : en:Chapter 12





1 個附件 售價 大小 下載 時間

Legal.Eagles.1986.1080p.BluRay.REMUX.AVC.DTS-HD.MA.2.0-FGT.torrent 0 金幣 95.58K 378 次 5月前

#1樓
發帖時間:2019-10-29 01:07:09   |   回復數:1
911degrees
隱世仙人♂
非常感謝,謝謝分享
5月前 #2樓
游客組