conanlcg
超級版主

[2017] [歐美] [其他] [BD-Remux] 妖瘦殺手 65th.2017.1080p.BluRay.REMUX.MPEG-2.DTS-HD.MA.5.1-FGT 10.69GB

-->

帖子完整標題:妖瘦殺手 65th.2017.1080p.BluRay.REMUX.MPEG-2.DTS-HD.MA.5.1-FGT 10.69GB




◎譯  名 妖瘦殺手 / The Slender Killer
◎片  名 65th
◎年  代 2017
◎產  地 美國
◎類  別 懸疑 / 驚悚
◎語  言 英語
◎IMDb評分 3.4/10 from 17 users
◎IMDb鏈接 https://www.imdb.com/title/tt7234202
◎豆瓣評分 0/10 from 0 users
◎豆瓣鏈接 https://movie.douban.com/subject/30289441/
◎片  長 78分鐘
◎導  演 M. Shawn Cunningham
◎編  劇 M. Shawn Cunningham / Eduardo Castrillo
◎主  演 Garrett Charles Coleman
      Amanda DoSsa Doss
      Robert Glover
      Michael Grayson
      Crystal Jasmin
      Akilah N. Kamau
      Khiara Symone Threets


◎標  簽 美國

◎簡  介

  Esther Harrison has it good and got exactly what she wanted in life; steady income two kids and a loving husband but, when a dark figure from her past comes calling, it reveals a secret that will change everything.
Video
ID : 1
Format : MPEG Video
Format version : Version 2
Format profile : [email protected]
Format settings : CustomMatrix / BVOP
Format settings, BVOP : Yes
Format settings, Matrix : Custom
Format settings, GOP : M=3, N=15
Codec ID : V_MPEG2
Codec ID/Info : MPEG 1 or 2 Video
Duration : 1 h 13 min
Bit rate mode : Variable
Bit rate : 17.3 Mb/s
Maximum bit rate : 25.0 Mb/s
Width : 1 920 pixels
Height : 1 080 pixels
Display aspect ratio : 16:9
Frame rate mode : Constant
Frame rate : 23.976 (24000/1001) FPS
Color space : YUV
Chroma subsampling : 4:2:0
Bit depth : 8 bits
Scan type : Progressive
Compression mode : Lossy
Bits/(Pixel*Frame) : 0.349
Time code of first frame : 00:00:00:00
Time code source : Group of pictures header
GOP, Open/Closed : Closed
Stream size : 8.96 GiB (84%)
Title : 65th.2017.1080p.BluRay.REMUX.MPEG-2.DTS-HD.MA.5.1-FGT
Language : English
Default : No
Forced : No

Audio
ID : 2
Format : DTS XLL
Format/Info : Digital Theater Systems
Commercial name : DTS-HD Master Audio
Codec ID : A_DTS
Duration : 1 h 14 min
Bit rate mode : Variable
Bit rate : 3 335 kb/s
Channel(s) : 6 channels
Channel layout : C L R Ls Rs LFE
Sampling rate : 48.0 kHz
Frame rate : 93.750 FPS (512 SPF)
Bit depth : 24 bits
Compression mode : Lossless
Stream size : 1.72 GiB (16%)
Title : 65th.2017.1080p.BluRay.REMUX.MPEG-2.DTS-HD.MA.5.1-FGT
Language : English
Default : Yes
Forced : No

Menu
00:00:00.000 : de:Chapter 01
00:09:15.680 : de:Chapter 02
00:18:23.685 : de:Chapter 03
00:25:50.048 : de:Chapter 04
00:36:54.754 : de:Chapter 05
00:47:01.777 : de:Chapter 06
00:56:32.972 : de:Chapter 07
01:03:23.591 : de:Chapter 08
01:10:47.910 : de:Chapter 09





1 個附件 售價 大小 下載 時間

65th.2017.1080p.BluRay.REMUX.MPEG-2.DTS-HD.MA.5.1-FGT.torrent 0 金幣 53.98K 1001 次 5月前

#1樓
發帖時間:2019-10-29 01:09:15   |   回復數:1
911degrees
隱世仙人♂
非常感謝,謝謝分享
5月前 #2樓
游客組