coor
一代宗師

[2017] [日本] [其他] [BD-720P] 雌貓們 Dawn.of.the.Felines.2017.720p.BluRay.x264-REGRET 4.37GB

-->

帖子完整標題:雌貓們 Dawn.of.the.Felines.2017.720p.BluRay.x264-REGRET 4.37GB




◎譯  名 雌貓們 / Dawn of the Felines / 母貓(臺) / 雌貓們之夜(港)
◎片  名 牝貓たち
◎年  代 2017
◎產  地 日本
◎類  別 情色
◎語  言 日語
◎上映日期 2017-01-14(日本)
◎IMDb評分 5.6/10 from 201 users
◎IMDb鏈接 https://www.imdb.com/title/tt6000140
◎豆瓣評分 6.0/10 from 2606 users
◎豆瓣鏈接 https://movie.douban.com/subject/26862905/
◎片  長 84分鐘
◎導  演 白石和彌 Kazuya Shiraishi
◎編  劇 白石和彌 Kazuya Shiraishi
◎主  演 井端珠里 Juri Ibata
      真上五月 Satsuki Maue
      美知枝 Michie
      音尾琢真 Takuma Otoo
      郭智博 Tomohiro Kaku
      村田秀亮 Hideaki Murata
      吉澤健 Ken Yoshizawa
      白川和子 Kazuko Shirakawa
      松永拓野 Takuya Matsunaga
      吉村界人 Kaito Yoshimura
      米村亮太朗 Ry?tar? Yonemura
      宇田高木 Takaki Uda
      野中隆光 Takamitsu Nonaka
      山咲美花 Mika Yamazaki
      天馬春 Haru Tenma
      久保田和靖 Kazunobu Kubota


◎標  簽 情色 | 日本 | 粉紅電影 | 2017 | 雌貓們 | 劇情 | 粉紅 | 日活

◎簡  介

  電影公司「日活」創業百年,最具代表性的一個品牌,是在七、 八十年代風靡一時的「粉紅映畫」(日文叫Roman Porno,海外稱之為Pink Movie),亦即是浪漫化的成人電影。今年適逢「粉紅映畫」誕生四十五周年,「日活」特別籌劃了「Roman Porno Reboot」計劃,找來園子溫、行定勳、中田秀夫、鹽田明彥、白石和彌五位名導操刀,各拍一部粉紅片。五人要跟足過往的游戲規則:每十分鐘要有一場情慾戲、片長必須在七十至八十分鐘之間、一律只有很低的製作費、要一星期內完成拍攝,其他一切自由發揮。結果證明五位導演不但玩得起,而且還玩得極有一手。
  鹽田的《濕濡的女人》最先曝光,重新演繹「粉紅」經典《濕濡的戀人們》,講野性少女在海邊故意濕身,然后賤價賣身給路過的男人。白石執導的《雌貓們》同樣向經典《雌貓們之夜》致敬,新版搬到池袋街頭上演,講在網吧打躉的難民、單親媽媽和不育人妻在夜間浪蕩的性活動。行定勳的《撩亂的裸舞曲》則是原創故事,諧星板尾創路演腦閉塞導演,陷入了女色陷阱,搞到身敗名裂。《午夜兇鈴》導演中田秀夫初戰成人世界,打動了九十后女優飛鳥凜全裸演出女同志故事《白百合》。向來出位的園子溫就盡展其反叛本色,以毒攻毒,用色情反色情拍了《Antiporno》,找來前AKB成員富手麻妙首次全裸主演。
  「粉紅映畫」之所以留名幾十年,是因為「淫」得有道,成本低但劇本扎實,而且是當時年輕新導磨練技藝的修羅場,《禮儀師》奧斯卡導演瀧田洋二郎、《談談情,跳跳舞》的周防正行、《死亡筆記》的金子修介、《后樂園》已故導演森田芳光等大導出道時都拍過粉紅片。停產了廿八年的粉紅系列今次一口氣推出五片,別具意義,將陸續于十一月底起在日本上映。
Video
ID : 1
Format : AVC
Format/Info : Advanced Video Codec
Format profile : [email protected]
Format settings : CABAC / 5 Ref Frames
Format settings, CABAC : Yes
Format settings, Reference frames : 5 frames
Codec ID : V_MPEG4/ISO/AVC
Duration : 1 h 24 min
Bit rate : 5 853 kb/s
Width : 1 280 pixels
Height : 544 pixels
Display aspect ratio : 2.35:1
Frame rate mode : Constant
Frame rate : 23.976 (24000/1001/189150) FPS
Color space : YUV
Chroma subsampling : 4:2:0
Bit depth : 8 bits
Scan type : Progressive
Bits/(Pixel*Frame) : 0.351
Stream size : 3.47 GiB (79%)
Writing library : x264 core 159 r2991 1771b55
Encoding settings : cabac=1 / ref=5 / deblock=1:-3:-3 / analyse=0x3:0x133 / me=umh / subme=9 / psy=1 / psy_rd=1.00:0.00 / mixed_ref=1 / me_range=16 / chroma_me=1 / trellis=2 / 8x8dct=1 / cqm=0 / deadzone=21,11 / fast_pskip=0 / chroma_qp_offset=-2 / threads=17 / lookahead_threads=1 / sliced_threads=0 / nr=0 / decimate=1 / interlaced=0 / bluray_compat=0 / constrained_intra=0 / bframes=3 / b_pyramid=2 / b_adapt=1 / b_bias=0 / direct=3 / weightb=1 / open_gop=0 / weightp=2 / keyint=240 / keyint_min=24 / scenecut=40 / intra_refresh=0 / rc_lookahead=50 / rc=2pass / mbtree=1 / bitrate=5853 / ratetol=1.0 / qcomp=0.60 / qpmin=0 / qpmax=69 / qpstep=4 / cplxblur=20.0 / qblur=0.5 / ip_ratio=1.40 / aq=1:1.00
Language : English
Default : Yes
Forced : No

Audio
ID : 2
Format : DTS
Format/Info : Digital Theater Systems
Codec ID : A_DTS
Duration : 1 h 24 min
Bit rate mode : Constant
Bit rate : 1 509 kb/s
Channel(s) : 6 channels
Channel layout : C L R Ls Rs LFE
Sampling rate : 48.0 kHz
Frame rate : 93.750 FPS (512 SPF)
Bit depth : 24 bits
Compression mode : Lossy
Stream size : 917 MiB (20%)
Language : Japanese
Default : Yes
Forced : No

Text #1
ID : 3
Format : UTF-8
Codec ID : S_TEXT/UTF8
Codec ID/Info : UTF-8 Plain Text
Duration : 1 h 24 min
Bit rate : 30 b/s
Count of elements : 887
Stream size : 19.1 KiB (0%)
Title : English Forced
Language : English
Default : Yes
Forced : Yes

Text #2
ID : 4
Format : UTF-8
Codec ID : S_TEXT/UTF8
Codec ID/Info : UTF-8 Plain Text
Duration : 1 h 24 min
Bit rate : 34 b/s
Count of elements : 817
Stream size : 21.6 KiB (0%)
Title : French
Language : French
Default : No
Forced : No

Menu
00:00:00.000 : en:Chapter 01
00:08:01.564 : en:Chapter 02
00:15:39.897 : en:Chapter 03
00:22:39.650 : en:Chapter 04
00:30:34.916 : en:Chapter 05
00:38:27.138 : en:Chapter 06
00:46:16.190 : en:Chapter 07
00:54:20.424 : en:Chapter 08
01:02:13.855 : en:Chapter 09
01:07:59.450 : en:Chapter 10
01:13:23.357 : en:Chapter 11
01:21:20.459 : en:Chapter 12
00:10:00.000 : en:Chapter 13





1 個附件 售價 大小 下載 時間

Dawn.of.the.Felines.2017.720p.BluRay.x264-REGRET.torrent 0 金幣 44.56K 987 次 14天前

#1樓
發帖時間:2020-03-26 12:41:50   |   回復數:1
911degrees
隱世仙人♂
非常感謝,謝謝分享
14天前 #2樓
游客組